The Good Place S04E11 (1080p AMZN WEB-DL x265 HEVC 10bit AAC 5.1 ...

  • Category TV
  • Type HEVC/x265
  • Language English
  • Total size 224.6 MB
  • Uploaded By UTRCorp
  • Downloads 305
  • Last checked 1 month ago
  • Date uploaded 1 month ago
  • Seeders 16
  • Leechers 3

Infohash : 6EDC3C95B36E62CBDF7A5A6ECE1DC9813372610E






Media Information

Code:

General
Format : Matroska
Format version : Version 4 / Version 2
File size : 225 MiB
Duration : 22 min 13 s
Overall bit rate : 1 413 kb/s
Movie name : The Good Place S04E11 Mondays Am I Right (1080p x265 q22 Joy)[UTR]
Encoded date : UTC 2020-01-19 19:55:50
Writing application : mkvmerge v34.0.0 ('Sight and Seen') 64-bit
Writing library : libebml v1.3.7 + libmatroska v1.5.0
Writing frontend : StaxRip v2.0.2.0, a JoyBell Encode

Video
ID : 1
Format : HEVC
Format/Info : High Efficiency Video Coding
Format profile : Main [email protected]@Main
Codec ID : V_MPEGH/ISO/HEVC
Duration : 22 min 12 s
Bit rate : 1 247 kb/s
Width : 1 920 pixels
Height : 1 080 pixels
Display aspect ratio : 16:9
Frame rate mode : Constant
Frame rate : 23.976 (24000/1001) FPS
Color space : YUV
Chroma subsampling : 4:2:0
Bit depth : 10 bits
Bits/(Pixel*Frame) : 0.025
Stream size : 198 MiB (88%)
Writing library : x265 3.2+9-971180b100f8:[Windows][MSVC 1923][64 bit] 10bit
Encoding settings : cpuid=1111039 / frame-threads=3 / numa-pools=12 / wpp / no-pmode / no-pme / no-psnr / ssim / log-level=2 / input-csp=1 / input-res=1920x1080 / interlace=0 / total-frames=31950 / level-idc=0 / high-tier=1 / uhd-bd=0 / ref=4 / no-allow-non-conformance / no-repeat-headers / annexb / no-aud / no-hrd / info / hash=0 / no-temporal-layers / open-gop / min-keyint=23 / keyint=250 / gop-lookahead=0 / bframes=8 / b-adapt=2 / b-pyramid / bframe-bias=40 / rc-lookahead=80 / lookahead-slices=4 / scenecut=40 / radl=0 / no-splice / no-intra-refresh / ctu=64 / min-cu-size=8 / rect / no-amp / max-tu-size=32 / tu-inter-depth=1 / tu-intra-depth=1 / limit-tu=0 / rdoq-level=2 / dynamic-rd=0.00 / ssim-rd / signhide / no-tskip / nr-intra=0 / nr-inter=0 / constrained-intra / strong-intra-smoothing / max-merge=3 / limit-refs=3 / limit-modes / me=3 / subme=3 / merange=57 / temporal-mvp / no-frame-dup / no-hme / weightp / no-weightb / no-analyze-src-pics / deblock=0:0 / sao / no-sao-non-deblock / rd=4 / selective-sao=4 / early-skip / rskip / no-fast-intra / no-tskip-fast / no-cu-lossless / no-b-intra / no-splitrd-skip / rdpenalty=0 / psy-rd=0.00 / psy-rdoq=0.80 / no-rd-refine / no-lossless / cbqpoffs=0 / crqpoffs=0 / rc=crf / crf=21.5 / qcomp=0.60 / qpstep=4 / stats-write=0 / stats-read=0 / ipratio=1.40 / pbratio=1.30 / aq-mode=1 / aq-strength=1.00 / cutree / zone-count=0 / no-strict-cbr / qg-size=32 / no-rc-grain / qpmax=69 / qpmin=0 / no-const-vbv / sar=0 / overscan=0 / videoformat=5 / range=0 / colorprim=2 / transfer=2 / colormatrix=2 / chromaloc=0 / display-window=0 / cll=0,0 / min-luma=0 / max-luma=1023 / log2-max-poc-lsb=8 / vui-timing-info / vui-hrd-info / slices=1 / no-opt-qp-pps / no-opt-ref-list-length-pps / no-multi-pass-opt-rps / scenecut-bias=0.05 / no-opt-cu-delta-qp / no-aq-motion / no-hdr / no-hdr-opt / no-dhdr10-opt / no-idr-recovery-sei / analysis-reuse-level=5 / scale-factor=0 / refine-intra=0 / refine-inter=0 / refine-mv=1 / refine-ctu-distortion=0 / no-limit-sao / ctu-info=0 / no-lowpass-dct / refine-analysis-type=0 / copy-pic=1 / max-ausize-factor=1.0 / no-dynamic-refine / no-single-sei / hevc-aq / no-svt / no-field / qp-adaptation-range=1.00
Default : Yes
Forced : No

Audio
ID : 2
Format : AAC
Format/Info : Advanced Audio Codec
Format profile : HE-AAC / LC
Codec ID : A_AAC
Duration : 22 min 13 s
Bit rate : 158 kb/s
Channel(s) : 6 channels
Channel positions : Front: L C R, Side: L R, LFE
Sampling rate : 48.0 kHz / 24.0 kHz
Frame rate : 23.438 FPS (1024 spf)
Compression mode : Lossy
Delay relative to video : 31 ms
Stream size : 25.1 MiB (11%)
Language : English
Default : No
Forced : No

Subtitle #1
ID : 3
Format : UTF-8
Codec ID : S_TEXT/UTF8
Codec ID/Info : UTF-8 Plain Text
Duration : 21 min 19 s
Bit rate : 113 b/s
Count of elements : 466
Stream size : 17.7 KiB (0%)
Language : English
Default : No
Forced : No

Subtitle #2
ID : 4
Format : UTF-8
Codec ID : S_TEXT/UTF8
Codec ID/Info : UTF-8 Plain Text
Duration : 21 min 19 s
Bit rate : 117 b/s
Count of elements : 472
Stream size : 18.3 KiB (0%)
Language : English
Default : No
Forced : No

Subtitle #3
ID : 5
Format : UTF-8
Codec ID : S_TEXT/UTF8
Codec ID/Info : UTF-8 Plain Text
Duration : 21 min 26 s
Bit rate : 176 b/s
Count of elements : 465
Stream size : 27.6 KiB (0%)
Language : Arabic
Default : No
Forced : No

Subtitle #4
ID : 6
Format : UTF-8
Codec ID : S_TEXT/UTF8
Codec ID/Info : UTF-8 Plain Text
Duration : 21 min 26 s
Bit rate : 97 b/s
Count of elements : 465
Stream size : 15.3 KiB (0%)
Language : Czech
Default : No
Forced : No

Subtitle #5
ID : 7
Format : UTF-8
Codec ID : S_TEXT/UTF8
Codec ID/Info : UTF-8 Plain Text
Duration : 21 min 26 s
Bit rate : 91 b/s
Count of elements : 463
Stream size : 14.4 KiB (0%)
Language : Danish
Default : No
Forced : No

Subtitle #6
ID : 8
Format : UTF-8
Codec ID : S_TEXT/UTF8
Codec ID/Info : UTF-8 Plain Text
Duration : 21 min 26 s
Bit rate : 180 b/s
Count of elements : 464
Stream size : 28.3 KiB (0%)
Language : Greek
Default : No
Forced : No

Subtitle #7
ID : 9
Format : UTF-8
Codec ID : S_TEXT/UTF8
Codec ID/Info : UTF-8 Plain Text
Duration : 21 min 26 s
Bit rate : 101 b/s
Count of elements : 465
Stream size : 15.9 KiB (0%)
Language : Spanish
Default : No
Forced : No

Subtitle #8
ID : 10
Format : UTF-8
Codec ID : S_TEXT/UTF8
Codec ID/Info : UTF-8 Plain Text
Duration : 21 min 24 s
Bit rate : 102 b/s
Count of elements : 463
Stream size : 16.1 KiB (0%)
Language : Spanish
Default : No
Forced : No

Subtitle #9
ID : 11
Format : UTF-8
Codec ID : S_TEXT/UTF8
Codec ID/Info : UTF-8 Plain Text
Duration : 21 min 26 s
Bit rate : 97 b/s
Count of elements : 465
Stream size : 15.2 KiB (0%)
Language : Finnish
Default : No
Forced : No

Subtitle #10
ID : 12
Format : UTF-8
Codec ID : S_TEXT/UTF8
Codec ID/Info : UTF-8 Plain Text
Duration : 21 min 26 s
Bit rate : 103 b/s
Count of elements : 459
Stream size : 16.2 KiB (0%)
Language : French
Default : No
Forced : No

Subtitle #11
ID : 13
Format : UTF-8
Codec ID : S_TEXT/UTF8
Codec ID/Info : UTF-8 Plain Text
Duration : 21 min 26 s
Bit rate : 158 b/s
Count of elements : 465
Stream size : 24.8 KiB (0%)
Language : Hebrew
Default : No
Forced : No

Subtitle #12
ID : 14
Format : UTF-8
Codec ID : S_TEXT/UTF8
Codec ID/Info : UTF-8 Plain Text
Duration : 21 min 26 s
Bit rate : 282 b/s
Count of elements : 465
Stream size : 44.3 KiB (0%)
Language : Hindi
Default : No
Forced : No

Subtitle #13
ID : 15
Format : UTF-8
Codec ID : S_TEXT/UTF8
Codec ID/Info : UTF-8 Plain Text
Duration : 21 min 26 s
Bit rate : 100 b/s
Count of elements : 465
Stream size : 15.8 KiB (0%)
Language : Hungarian
Default : No
Forced : No

Subtitle #14
ID : 16
Format : UTF-8
Codec ID : S_TEXT/UTF8
Codec ID/Info : UTF-8 Plain Text
Duration : 21 min 26 s
Bit rate : 100 b/s
Count of elements : 465
Stream size : 15.8 KiB (0%)
Language : Indonesian
Default : No
Forced : No

Subtitle #15
ID : 17
Format : UTF-8
Codec ID : S_TEXT/UTF8
Codec ID/Info : UTF-8 Plain Text
Duration : 21 min 26 s
Bit rate : 125 b/s
Count of elements : 465
Stream size : 19.7 KiB (0%)
Language : Icelandic
Default : No
Forced : No

Subtitle #16
ID : 18
Format : UTF-8
Codec ID : S_TEXT/UTF8
Codec ID/Info : UTF-8 Plain Text
Duration : 21 min 26 s
Bit rate : 101 b/s
Count of elements : 465
Stream size : 16.0 KiB (0%)
Language : Italian
Default : No
Forced : No

Subtitle #17
ID : 19
Format : UTF-8
Codec ID : S_TEXT/UTF8
Codec ID/Info : UTF-8 Plain Text
Duration : 21 min 24 s
Bit rate : 101 b/s
Count of elements : 430
Stream size : 16.0 KiB (0%)
Language : Japanese
Default : No
Forced : No

Subtitle #18
ID : 20
Format : UTF-8
Codec ID : S_TEXT/UTF8
Codec ID/Info : UTF-8 Plain Text
Duration : 21 min 26 s
Bit rate : 132 b/s
Count of elements : 464
Stream size : 20.8 KiB (0%)
Language : Korean
Default : No
Forced : No

Subtitle #19
ID : 21
Format : UTF-8
Codec ID : S_TEXT/UTF8
Codec ID/Info : UTF-8 Plain Text
Duration : 21 min 26 s
Bit rate : 100 b/s
Count of elements : 465
Stream size : 15.7 KiB (0%)
Language : Malay
Default : No
Forced : No

Subtitle #20
ID : 22
Format : UTF-8
Codec ID : S_TEXT/UTF8
Codec ID/Info : UTF-8 Plain Text
Duration : 21 min 26 s
Bit rate : 102 b/s
Count of elements : 465
Stream size : 16.1 KiB (0%)
Language : Norwegian Bokmal
Default : No
Forced : No

Subtitle #21
ID : 23
Format : UTF-8
Codec ID : S_TEXT/UTF8
Codec ID/Info : UTF-8 Plain Text
Duration : 21 min 26 s
Bit rate : 91 b/s
Count of elements : 464
Stream size : 14.4 KiB (0%)
Language : Dutch
Default : No
Forced : No

Subtitle #22
ID : 24
Format : UTF-8
Codec ID : S_TEXT/UTF8
Codec ID/Info : UTF-8 Plain Text
Duration : 21 min 26 s
Bit rate : 98 b/s
Count of elements : 458
Stream size : 15.4 KiB (0%)
Language : Polish
Default : No
Forced : No

Subtitle #23
ID : 25
Format : UTF-8
Codec ID : S_TEXT/UTF8
Codec ID/Info : UTF-8 Plain Text
Duration : 21 min 26 s
Bit rate : 104 b/s
Count of elements : 464
Stream size : 16.4 KiB (0%)
Language : Portuguese
Default : No
Forced : No

Subtitle #24
ID : 26
Format : UTF-8
Codec ID : S_TEXT/UTF8
Codec ID/Info : UTF-8 Plain Text
Duration : 21 min 26 s
Bit rate : 109 b/s
Count of elements : 465
Stream size : 17.2 KiB (0%)
Language : Portuguese
Default : No
Forced : No

Subtitle #25
ID : 27
Format : UTF-8
Codec ID : S_TEXT/UTF8
Codec ID/Info : UTF-8 Plain Text
Duration : 21 min 26 s
Bit rate : 114 b/s
Count of elements : 463
Stream size : 17.9 KiB (0%)
Language : Romanian
Default : No
Forced : No

Subtitle #26
ID : 28
Format : UTF-8
Codec ID : S_TEXT/UTF8
Codec ID/Info : UTF-8 Plain Text
Duration : 21 min 26 s
Bit rate : 163 b/s
Count of elements : 465
Stream size : 25.7 KiB (0%)
Language : Russian
Default : No
Forced : No

Subtitle #27
ID : 29
Format : UTF-8
Codec ID : S_TEXT/UTF8
Codec ID/Info : UTF-8 Plain Text
Duration : 21 min 26 s
Bit rate : 98 b/s
Count of elements : 465
Stream size : 15.5 KiB (0%)
Language : Swedish
Default : No
Forced : No

Subtitle #28
ID : 30
Format : UTF-8
Codec ID : S_TEXT/UTF8
Codec ID/Info : UTF-8 Plain Text
Duration : 21 min 26 s
Bit rate : 296 b/s
Count of elements : 465
Stream size : 46.6 KiB (0%)
Language : Thai
Default : No
Forced : No

Subtitle #29
ID : 31
Format : UTF-8
Codec ID : S_TEXT/UTF8
Codec ID/Info : UTF-8 Plain Text
Duration : 21 min 26 s
Bit rate : 105 b/s
Count of elements : 465
Stream size : 16.6 KiB (0%)
Language : Turkish
Default : No
Forced : No

Subtitle #30
ID : 32
Format : UTF-8
Codec ID : S_TEXT/UTF8
Codec ID/Info : UTF-8 Plain Text
Duration : 21 min 26 s
Bit rate : 177 b/s
Count of elements : 465
Stream size : 27.9 KiB (0%)
Language : Ukrainian
Default : No
Forced : No

Subtitle #31
ID : 33
Format : UTF-8
Codec ID : S_TEXT/UTF8
Codec ID/Info : UTF-8 Plain Text
Duration : 21 min 26 s
Bit rate : 144 b/s
Count of elements : 465
Stream size : 22.7 KiB (0%)
Language : Vietnamese
Default : No
Forced : No

Subtitle #32
ID : 34
Format : UTF-8
Codec ID : S_TEXT/UTF8
Codec ID/Info : UTF-8 Plain Text
Duration : 21 min 26 s
Bit rate : 114 b/s
Count of elements : 465
Stream size : 18.0 KiB (0%)
Language : Chinese
Default : No
Forced : No

Subtitle #33
ID : 35
Format : UTF-8
Codec ID : S_TEXT/UTF8
Codec ID/Info : UTF-8 Plain Text
Duration : 21 min 26 s
Bit rate : 108 b/s
Count of elements : 465
Stream size : 17.0 KiB (0%)
Language : Chinese
Default : No
Forced : No



Source Information

Code:

Release: The.Good.Place.S04E11.Mondays.Am.I.Right.1080p.NF.WEB-DL.DD+5.1.x264-AJP69.mkv (1.05 GBs)


Code:


Note From UTR
Whilst we are happy for our releases to be re-posted on a platform we aren't on, please do so in an 'as-is' format. We ask that you do not create a new torrent, include all descriptions you see above including the UTR logo, tags, notes and screenshots. If you'd like to become a permanent poster on a website we don't post to, feel free to get in contact with a UTR member.
If possible please donate for seedboxes.
BTC - 1QA5fum5AyXvWzdVCkQzUNvw3Ef15fHRaR
Monero - 8AuksPSzY7fen3HHT1a2342PgVy4J93MKfXG3AAcayV76miTyJ3sNfn38srwrpLirGfeR5DwhTL8GW8pdQgT7bZcJ25ynMx
Dash - Xh4mNs6uwZdpCEX2HSEVwGvPD7yKxZ1Ccd
Ethereum - 0x51c06c94e74c16735a7a6e841ad29fc90a84eb1f



Files:

  • The Good Place S04E11 Mondays Am I Right [1080p x265 q22 FS91 Joy].mkv (224.6 MB)

Comments

Code:

  • udp://tracker.opentrackr.org:1337/announce
  • udp://tracker.coppersurfer.tk:6969/announce
  • udp://9.rarbg.com:2710/announce
  • udp://9.rarbg.to:2710/announce
  • udp://tracker.torrent.eu.org:451/announce
  • udp://exodus.desync.com:6969/announce
  • udp://tracker.tiny-vps.com:6969/announce
  • udp://open.demonii.si:1337/announce
  • udp://tracker.internetwarriors.net:1337/announce