John.Wick.Chapter.3.Parabellum.2019.720p.WEBRip.AC3-The CoLLeCtiV...

  • Category Movies
  • Type HD
  • Language English
  • Total size 3.8 GB
  • Uploaded By SeekNDstroy
  • Downloads 11137
  • Last checked 4 months ago
  • Date uploaded 4 months ago
  • Seeders 495
  • Leechers 208

John Wick: Chapter 3 – Parabellum

CrimeActionThriller

In this third installment of the adrenaline-fueled action franchise, super-assassin John Wick returns with a $14 million price tag on his head and an army of bounty-hunting killers on his trail. After killing a member of the shadowy international assassin’s guild, the High Table, John Wick is excommunicado, but the world’s most ruthless hit men and women await his every turn.

Infohash : 073D4260282D2230F78465DCE9F0C13A72ED2A1F



Plot: In this third installment of the adrenaline-fueled action franchise, skilled assassin John Wick (Keanu Reeves) returns with a $14 million price tag on his head and an army of bounty-hunting killers on his trail. After killing a member of the shadowy international assassin’s guild, the High Table, John Wick is excommunicado, but the world’s most ruthless hit men and women await his every turn.

Genre: Action | Crime | Thriller
IMDB Rating: 8.0/10.0 From 101142 Users
Directed by: Chad Stahelski
Starring: Keanu Reeves , Halle Berry , Ian McShane , Laurence Fishburne

Format                                   : Matroska
Format version                           : Version 4 / Version 2
File size                                : 3.79 GiB
Duration                                 : 2h 10mn
Overall bit rate                         : 4 150 Kbps
Encoded date                             : UTC 2019-07-19 21:20:14
Writing application                      : mkvmerge v31.0.0 ('Dolores In A Shoestand') 64-bit
Writing library                          : libebml v1.3.6 + libmatroska v1.4.9

Video
ID                                       : 1
Format                                   : AVC
Format/Info                              : Advanced Video Codec
Format profile                           : [email protected]
Format settings, CABAC                   : Yes
Format settings, ReFrames                : 10 frames
Codec ID                                 : V_MPEG4/ISO/AVC
Duration                                 : 2h 10mn
Bit rate                                 : 3 957 Kbps
Nominal bit rate                         : 4 300 Kbps
Width                                    : 1 280 pixels
Height                                   : 544 pixels
Display aspect ratio                     : 2.35:1
Frame rate mode                          : Constant
Frame rate                               : 23.976 (24000/1001) fps
Color space                              : YUV
Chroma subsampling                       : 4:2:0
Bit depth                                : 8 bits
Scan type                                : Progressive
Bits/(Pixel*Frame)                       : 0.237
Stream size                              : 3.61 GiB (95%)
Title                                    : John Wick.Chapter 3.Parabellum.2019.WEBRip.720p-ThE CoLLeCtiVe
Writing library                          : x264 core 157 r2969 d4099dd
Encoding settings                        : cabac=1 / ref=10 / deblock=1:-3:-3 / analyse=0x3:0x133 / me=umh / subme=9 / psy=1 / psy_rd=0.98:0.04 / mixed_ref=1 / me_range=48 / chroma_me=1 / trellis=1 / 8x8dct=1 / cqm=0 / deadzone=21,11 / fast_pskip=1 / chroma_qp_offset=-3 / threads=5 / lookahead_threads=1 / sliced_threads=0 / nr=0 / decimate=1 / interlaced=0 / bluray_compat=0 / constrained_intra=0 / bframes=3 / b_pyramid=2 / b_adapt=2 / b_bias=0 / direct=3 / weightb=1 / open_gop=0 / weightp=2 / keyint=240 / keyint_min=24 / scenecut=40 / intra_refresh=0 / rc_lookahead=40 / rc=cbr / mbtree=1 / bitrate=4300 / ratetol=1.0 / qcomp=0.60 / qpmin=0 / qpmax=69 / qpstep=4 / vbv_maxrate=4300 / vbv_bufsize=3071 / nal_hrd=none / filler=0 / ip_ratio=1.40 / aq=1:1.00
Language                                 : English
Default                                  : Yes
Forced                                   : No

Audio
ID                                       : 2
Format                                   : AC-3
Format/Info                              : Audio Coding 3
Mode extension                           : CM (complete main)
Format settings, Endianness              : Big
Codec ID                                 : A_AC3
Duration                                 : 2h 10mn
Bit rate mode                            : Constant
Bit rate                                 : 192 Kbps
Channel(s)                               : 2 channels
Channel positions                        : Front: L R
Sampling rate                            : 48.0 KHz
Frame rate                               : 31.250 fps (1536 spf)
Compression mode                         : Lossy
Stream size                              : 180 MiB (5%)
Language                                 : English
Default                                  : No
Forced                                   : No

Text
ID                                       : 3
Format                                   : UTF-8
Codec ID                                 : S_TEXT/UTF8
Codec ID/Info                            : UTF-8 Plain Text
Duration                                 : 2h 9mn
Bit rate                                 : 29 bps
Count of elements                        : 1142
Stream size                              : 27.9 KiB (0%)
Language                                 : English
Default                                  : No
Forced                                   : No





Files:

  • John.Wick.Chapter.3.Parabellum.2019.720p.WEBRip.AC3-The CoLLeCtiVe.mkv (3.8 GB)

Comments

Code:

  • udp://tracker.leechers-paradise.org:6969/announce
  • udp://bt.xxx-tracker.com:2710/announce
  • udp://tracker.internetwarriors.net:1337/announce
  • udp://explodie.org:6969/announce
  • udp://tracker.opentrackr.org:1337/announce
  • udp://tracker.tiny-vps.com:6969/announce