Dark.Phoenix.2019.TS.XViD-ThE CoLLeCtiVe

  • Category Movies
  • Type Divx/Xvid
  • Language English
  • Total size 1.4 GB
  • Uploaded By HiCKLYFE
  • Downloads 12929
  • Last checked 4 months ago
  • Date uploaded 4 months ago
  • Seeders 180
  • Leechers 70

Dark Phoenix

Science FictionAdventureAction

The X-Men face their most formidable and powerful foe when one of their own, Jean Grey, starts to spiral out of control. During a rescue mission in outer space, Jean is nearly killed when she's hit by a mysterious cosmic force. Once she returns home, this force not only makes her infinitely more powerful, but far more unstable. The X-Men must now band together to save her soul and battle aliens that want to use Grey's new abilities to rule the galaxy.

Infohash : 42E39A0BD1E204EBFB90D61BF35EC986D94782AA



---------------------------------------------------------------------------------------------------
""8"" 8"""" 8""""8 8 8 8""""8 88 8
8 e e 8 8 " eeeee 8 8 eeee 8 " eeeee e 88 8 eeee
8e 8 8 8eeee 8e 8 88 8e 8e 8 8e 8 8 88 e8 8
88 8eee8 88 88 8 8 88 88 8eee 88 8e 8e "8 8 8eee
88 88 8 88 88 e 8 8 88 88 88 88 e 88 88 8 8 88
88 88 8 88eee 88eee8 8eee8 88eee 88eee 88ee 88eee8 88 88 8ee8 88ee
---------------------------------------------------------------------------------------------------



Dark Phoenix (2019)

Rated: R 1h 53min | Action, Adventure, Sci-Fi | 7 June 2019 (USA)
Director: Simon Kinberg
Writers: Simon Kinberg, Stan Lee
Stars: James McAvoy, Michael Fassbender, Jennifer Lawrence



//www.youtube.com/watch?v=1-q8C_c-nlM

---------------------------------------------------------------------------------------------------

Dark.Phoenix.2019.TS.XViD-ThE CoLLeCtiVe

Ripper ...........: ThE CoLLeCtiVe IMDB Rating.......:6.010
Video Codec.......:XViD Release Date......:2019/7/17
Audio Codec.......:mp3 Theatre Date......:2019/6/7
Audio Bitrate.....:128 Runtime...........:1h 44 min
Subtitles.........:N/A Language..........:ENGLISH
Resolution........:720x336
IMDB URL..........://www.imdb.com/title/tt6565702/



DETAILS:

Format : AVI
Format/Info : Audio Video Interleave
File size : 1.37 GiB
Duration : 1 h 44 min
Overall bit rate : 1 869 kb/s

Video
ID : 0
Format : MPEG-4 Visual
Format profile : Advanced [email protected]
Format settings : BVOP2 / QPel
Format settings, BVOP : 2
Format settings, QPel : Yes
Format settings, GMC : No warppoints
Format settings, Matrix : Default (H.263)
Muxing mode : Packed bitstream
Codec ID : XVID
Codec ID/Hint : XviD
Duration : 1 h 44 min
Bit rate : 1 733 kb/s
Width : 720 pixels
Height : 336 pixels
Display aspect ratio : 2.143
Frame rate : 29.970 (30000/1001) FPS
Color space : YUV
Chroma subsampling : 4:2:0
Bit depth : 8 bits
Scan type : Progressive
Compression mode : Lossy
Bits/(Pixel*Frame) : 0.239
Stream size : 1.27 GiB (93%)
Writing library : XviD 67

Audio
ID : 1
Format : MPEG Audio
Format version : Version 1
Format profile : Layer 3
Format settings : Joint stereo / MS Stereo
Codec ID : 55
Codec ID/Hint : MP3
Duration : 1 h 44 min
Bit rate mode : Constant
Bit rate : 128 kb/s
Channel(s) : 2 channels
Sampling rate : 44.1 kHz
Frame rate : 38.281 FPS (1152 SPF)
Compression mode : Lossy
Stream size : 96.0 MiB (7%)
Alignment : Aligned on interleaves
Interleave, duration : 133 ms (4.00 video frames)
Interleave, preload duration : 208 ms
Title : synced
Writing library : LAME3.100
Encoding settings : -m j -V 4 -q 2 -lowpass 17 -b 128





Wanna thank Hank Hill for video source and Boomhauer for audio..

Took source and made script to crop and resize then added sum filters to make it look better.
NO WATERMARKS OR ADS AT ALL.. YOUR WELCOME.. 1XBET IS NOW ON NOTICE..

Greets to all past and present day PTP groups!!!






Files:

Dark.Phoenix.2019.TS.XViD-ThE CoLLeCtiVe
  • Dark.Phoenix.2019.TS.XViD-ThE CoLLeCtiVe.avi (1.4 GB)
  • sample1.avi (30.4 MB)
  • sample2.avi (18.8 MB)
  • ThE CoLLeCtiVe.nfo (5.1 KB)

Comments

Code:

  • UDP://TRACKER.LEECHERS-PARADISE.ORG:6969/ANNOUNCE
  • UDP://TRACKER.COPPERSURFER.TK:6969/ANNOUNCE
  • UDP://TRACKER.OPENTRACKR.ORG:1337/ANNOUNCE
  • UDP://TRACKER.ZER0DAY.TO:1337/ANNOUNCE
  • UDP://EDDIE4.NL:6969/ANNOUNCE