X2 (2003) + Featurettes (1080p Bluray x265 HEVC 10bit AAC 5.1 Joy...

  • Category Movies
  • Type HEVC/x265
  • Language English
  • Total size 2.1 GB
  • Uploaded By UTRCorp
  • Downloads 238
  • Last checked 1 day ago
  • Date uploaded 6 days ago
  • Seeders 7
  • Leechers 1

The Second Uncanny Issue of X-Men: ...

Documentary

This is feature-length documentary on the 2-Disc of X2.

Infohash : 1809B3210CD51405A2B9EBF07DD9692C5D49274B








Media Information

Code:

General
Format : Matroska
Format version : Version 4 / Version 2
File size : 1.64 GiB
Duration : 2 h 13 min
Overall bit rate : 1 757 kb/s
Encoded date : UTC 2015-09-21 05:41:36
Writing application : mkvmerge v8.0.0 ('Til The Day That I Die') 64bit
Writing library : libebml v1.3.1 + libmatroska v1.4.2

Video
ID : 1
Format : HEVC
Format/Info : High Efficiency Video Coding
Format profile : Main [email protected]@Main
Codec ID : V_MPEGH/ISO/HEVC
Duration : 2 h 13 min
Bit rate : 1 346 kb/s
Width : 1 920 pixels
Height : 800 pixels
Display aspect ratio : 2.40:1
Frame rate mode : Constant
Frame rate : 23.976 (24000/1001) FPS
Color space : YUV
Chroma subsampling : 4:2:0
Bit depth : 10 bits
Bits/(Pixel*Frame) : 0.037
Stream size : 1.26 GiB (77%)
Writing library : x265 1.7+234-b1af4c36f48a:[Windows][GCC 4.8.2][64 bit] 10bit
Encoding settings : wpp / ctu=64 / min-cu-size=8 / max-tu-size=32 / tu-intra-depth=1 / tu-inter-depth=1 / me=1 / subme=2 / merange=57 / no-rect / no-amp / max-merge=2 / temporal-mvp / no-early-skip / rdpenalty=0 / no-tskip / no-tskip-fast / strong-intra-smoothing / no-lossless / no-cu-lossless / no-constrained-intra / no-fast-intra / open-gop / no-temporal-layers / interlace=0 / keyint=250 / min-keyint=23 / scenecut=40 / rc-lookahead=20 / lookahead-slices=0 / bframes=4 / bframe-bias=0 / b-adapt=2 / ref=3 / limit-refs=0 / weightp / no-weightb / aq-mode=1 / aq-strength=0.30 / cbqpoffs=0 / crqpoffs=0 / rd=3 / psy-rd=0.50 / rdoq-level=0 / psy-rdoq=0.00 / signhide / deblock=-2:-2 / sao / no-sao-non-deblock / b-pyramid / cutree / rc=2 / pass / bitrate=1345 / qcomp=0.80 / qpmin=0 / qpmax=51 / qpstep=4 / cplxblur=20.0 / qblur=0.5 / ipratio=1.10 / pbratio=1.10
Default : Yes
Forced : No

Audio #1
ID : 14
Format : AAC
Format/Info : Advanced Audio Codec
Format profile : HE-AAC / LC
Codec ID : A_AAC
Duration : 2 h 13 min
Bit rate : 256 kb/s
Channel(s) : 6 channels
Channel positions : Front: L C R, Side: L R, LFE
Sampling rate : 48.0 kHz / 24.0 kHz
Frame rate : 23.438 FPS (1024 spf)
Compression mode : Lossy
Stream size : 245 MiB (15%)
Title : Surround
Language : English
Default : Yes
Forced : No

Audio #2
ID : 15
Format : AAC
Format/Info : Advanced Audio Codec
Format profile : HE-AAC / LC
Codec ID : A_AAC
Duration : 2 h 13 min
Bit rate : 56.0 kb/s
Channel(s) : 2 channels
Channel positions : Front: L R
Sampling rate : 48.0 kHz / 24.0 kHz
Frame rate : 23.438 FPS (1024 spf)
Compression mode : Lossy
Stream size : 53.6 MiB (3%)
Title : Stereo
Language : English
Default : No
Forced : No

Audio #3
ID : 16
Format : AAC
Format/Info : Advanced Audio Codec
Format profile : HE-AAC / LC
Codec ID : A_AAC
Duration : 2 h 13 min
Bit rate : 56.0 kb/s
Channel(s) : 2 channels
Channel positions : Front: L R
Sampling rate : 48.0 kHz / 24.0 kHz
Frame rate : 23.438 FPS (1024 spf)
Compression mode : Lossy
Stream size : 53.6 MiB (3%)
Title : Stereo
Language : English
Default : No
Forced : No

Subtitle #1
ID : 2
Format : PGS
Muxing mode : zlib
Codec ID : S_HDMV/PGS
Codec ID/Info : Picture based subtitle format used on BDs/HD-DVDs
Duration : 2 h 4 min
Bit rate : 14.4 kb/s
Count of elements : 2185
Stream size : 12.8 MiB (1%)
Language : Spanish
Default : No
Forced : No

Subtitle #2
ID : 3
Format : PGS
Muxing mode : zlib
Codec ID : S_HDMV/PGS
Codec ID/Info : Picture based subtitle format used on BDs/HD-DVDs
Duration : 2 h 4 min
Bit rate : 10.9 kb/s
Count of elements : 2011
Stream size : 9.66 MiB (1%)
Language : Korean
Default : No
Forced : No

Subtitle #3
ID : 4
Format : PGS
Muxing mode : zlib
Codec ID : S_HDMV/PGS
Codec ID/Info : Picture based subtitle format used on BDs/HD-DVDs
Duration : 2 h 4 min
Bit rate : 17.7 kb/s
Count of elements : 2233
Stream size : 15.7 MiB (1%)
Language : Chinese
Default : No
Forced : No

Subtitle #4
ID : 5
Format : UTF-8
Codec ID : S_TEXT/UTF8
Codec ID/Info : UTF-8 Plain Text
Duration : 2 h 6 min
Bit rate : 55 b/s
Count of elements : 1060
Stream size : 51.5 KiB (0%)
Language : Arabic
Default : No
Forced : No

Subtitle #5
ID : 6
Format : UTF-8
Codec ID : S_TEXT/UTF8
Codec ID/Info : UTF-8 Plain Text
Duration : 2 h 13 min
Bit rate : 30 b/s
Count of elements : 869
Stream size : 29.7 KiB (0%)
Language : Danish
Default : No
Forced : No

Subtitle #6
ID : 7
Format : UTF-8
Codec ID : S_TEXT/UTF8
Codec ID/Info : UTF-8 Plain Text
Duration : 2 h 4 min
Bit rate : 30 b/s
Count of elements : 759
Stream size : 27.4 KiB (0%)
Language : Dutch
Default : No
Forced : No

Subtitle #7
ID : 8
Format : UTF-8
Codec ID : S_TEXT/UTF8
Codec ID/Info : UTF-8 Plain Text
Duration : 2 h 4 min
Bit rate : 38 b/s
Count of elements : 1052
Stream size : 35.2 KiB (0%)
Language : English
Default : No
Forced : No

Subtitle #8
ID : 9
Format : UTF-8
Codec ID : S_TEXT/UTF8
Codec ID/Info : UTF-8 Plain Text
Duration : 2 h 4 min
Bit rate : 54 b/s
Count of elements : 881
Stream size : 49.9 KiB (0%)
Language : Persian
Default : No
Forced : No

Subtitle #9
ID : 10
Format : UTF-8
Codec ID : S_TEXT/UTF8
Codec ID/Info : UTF-8 Plain Text
Duration : 2 h 13 min
Bit rate : 33 b/s
Count of elements : 867
Stream size : 32.7 KiB (0%)
Language : French
Default : No
Forced : No

Subtitle #10
ID : 11
Format : UTF-8
Codec ID : S_TEXT/UTF8
Codec ID/Info : UTF-8 Plain Text
Duration : 2 h 4 min
Bit rate : 32 b/s
Count of elements : 866
Stream size : 29.5 KiB (0%)
Language : Portuguese
Default : No
Forced : No

Subtitle #11
ID : 12
Format : UTF-8
Codec ID : S_TEXT/UTF8
Codec ID/Info : UTF-8 Plain Text
Duration : 2 h 4 min
Bit rate : 32 b/s
Count of elements : 867
Stream size : 29.3 KiB (0%)
Language : Turkish
Default : No
Forced : No

Subtitle #12
ID : 13
Format : UTF-8
Codec ID : S_TEXT/UTF8
Codec ID/Info : UTF-8 Plain Text
Duration : 2 h 4 min
Bit rate : 52 b/s
Count of elements : 1058
Stream size : 47.5 KiB (0%)
Language : Vietnamese
Default : No
Forced : No

Menu
00:00:00.000 : en:Main Titles
00:01:50.527 : en:Security Breach
00:05:21.947 : en:Alkali Lake
00:07:12.265 : en:The Field Trip
00:12:27.121 : en:Stryker's War
00:15:34.225 : en:Logan's Return
00:17:57.326 : en:One Final Talk
00:19:25.706 : en:The Mutant Connection
00:22:47.616 : en:Mutant Intruder
00:26:09.693 : en:Nightcrawler
00:29:15.963 : en:Sleepless
00:31:10.285 : en:Magneto's Visitor
00:33:41.686 : en:The War Has Begun
00:35:09.524 : en:The Invaders
00:39:50.179 : en:Out Of The Past
00:45:35.733 : en:Grace
00:47:18.335 : en:Stryker's Prisoner
00:50:24.104 : en:The Drake Home
00:53:17.986 : en:Too Much Iron
00:55:40.420 : en:This Mutant Problem
00:57:14.931 : en:Faith & Anger
00:59:21.808 : en:Dangerous Mutants
01:04:55.892 : en:Air Attack
01:09:23.701 : en:Stryker's Plan
01:14:48.734 : en:What Do You Want?
01:18:18.485 : en:The Mutant Inside
01:24:52.546 : en:Time To Find Our Friends
01:27:16.440 : en:Lover's Quarrel
01:30:32.385 : en:Point Of Origin
01:32:33.923 : en:Two Of A Kind
01:36:44.090 : en:Change Of Plans
01:41:16.070 : en:An Animal
01:43:31.163 : en:To Stop Cerebro
01:46:38.058 : en:The Big Chill
01:48:38.637 : en:Escape
01:53:41.940 : en:The Only Way
01:58:18.883 : en:The President's Opportunity
02:02:14.661 : en:Left Behind
02:04:38.471 : en:Evolution Leaps Forward
02:05:11.170 : en:End Titles



Source Information

Code:

Release:
Unknown Source/NO-GROUP



Code:


Note From UTR
Whilst we are happy for our releases to be re-posted on a platform we aren't on, please do so in an 'as-is' format. We ask that you do not create a new torrent, include all descriptions you see above including the UTR logo, tags, notes and screenshots. If you'd like to become a permanent poster on a website we don't post to, feel free to get in contact with a UTR member.
If possible please donate for seedboxes.
BTC - 1QA5fum5AyXvWzdVCkQzUNvw3Ef15fHRaR
Monero - 8AuksPSzY7fen3HHT1a2342PgVy4J93MKfXG3AAcayV76miTyJ3sNfn38srwrpLirGfeR5DwhTL8GW8pdQgT7bZcJ25ynMx
Dash - Xh4mNs6uwZdpCEX2HSEVwGvPD7yKxZ1Ccd
Ethereum - 0x51c06c94e74c16735a7a6e841ad29fc90a84eb1f




Files:

X2 X-Men United 2003 (1080p x265 10bit Joy) Extras
  • Deleted and Extended Scenes.mkv (27.1 MB)
  • Evolution in the Details - Designing X2.mkv (41.0 MB)
  • FX2 - Visual Effects.mkv (56.8 MB)
  • Introducing the INCREDIBLE NIGHTCRAWLER.mkv (22.4 MB)
  • Nightcrawler Attack-Multi-Angle Study 1.mkv (5.5 MB)
  • Nightcrawler Attack-Multi-Angle Study 2.mkv (5.4 MB)
  • Nightcrawler Attack-Multi-Angle Study 3.mkv (5.5 MB)
  • Nightcrawler Attack-Multi-Angle Study 4.mkv (5.4 MB)
  • Nightcrawler Reborn.mkv (17.3 MB)
  • Nightcrawler Stunt Rehearsal.mkv (5.6 MB)
  • Nightcrawler Time-Lapse.mkv (8.4 MB)
  • Requiem For Mutants - The Score of X2.mkv (26.6 MB)
  • The Second Uncanny Issue of X-Men - Making X2.mkv (135.2 MB)
  • The Secret Origin of X-Men.mkv (35.2 MB)
  • United Colors of X2.mkv (20.4 MB)
  • Wolverine Deathstrike Fight Rehearsal.mkv (3.2 MB)
  • X2 Global Webcast Highlights.mkv (38.7 MB)
  • Encoded by JoyBell.txt (0.4 KB)
  • How to play HEVC (THIS FILE).txt (2.2 KB)
  • Ninite K-Lite Codecs Unattended Silent Installer and Updater.website (0.5 KB)
  • X2 X-Men United 2003 (1080p x265 10bit Joy).mkv (1.6 GB)

There are currently no comments. Feel free to leave one :)

Code:

  • udp://open.demonii.com:1337/announce
  • udp://9.rarbg.com:2710/announce
  • udp://coppersurfer.tk:6969/announce
  • udp://9.rarbg.me:2710/announce
  • udp://tracker.openbittorrent.com:80/announce
  • udp://glotorrents.pw:6969/announce
  • //tracker.aletorrenty.pl:2710/announce
  • udp://tracker4.piratux.com:6969/announce
  • //torrent.gresille.org/announce