Batla House 2019 x264 720p HD Esub Hindi GOPISAHI

  • Category Movies
  • Type Bollywood
  • Language Hindi
  • Total size 1.1 GB
  • Uploaded By PENDUDESI
  • Downloads 2748
  • Last checked 21 hours ago
  • Date uploaded 4 days ago
  • Seeders 117
  • Leechers 23

Batla House

ActionDramaThriller

In this action thriller inspired by the controversial Batla House encounter case, Sanjeev Kumar, an honest cop, struggles to clear his name and deal with Post Traumatic Stress Disorder after he and his team are believed to have shot down innocent students.

Infohash : 0E5D273BD83B2E67B2F3E925DC74ABA62079854B

//www.gopisahi.xyz/



Batla House 2019 x264 720p HD Esub Hindi GOPISAHI

Format : Matroska
Format version : Version 4
File size : 1.06 GiB
Duration : 2 h 19 min
Overall bit rate : 1 091 kb/s
Movie name : Batla House 2019 GOPISAHI

Video
Format : AVC
Format/Info : Advanced Video Codec
Format profile : [email protected]
Format settings : CABAC / 12 Ref Frames
Format settings, CABAC : Yes
Format settings, Reference fra : 12 frames
Codec ID : V_MPEG4/ISO/AVC
Duration : 2 h 19 min
Bit rate : 899 kb/s
Width : 1 280 pixels
Height : 544 pixels
Display aspect ratio : 2.35:1
Frame rate mode : Constant
Frame rate : 24.000 FPS
Color space : YUV
Chroma subsampling : 4:2:0
Bit depth : 8 bits
Scan type : Progressive
Bits/(Pixel*Frame) : 0.054
Stream size : 894 MiB (82%)
Title : GOPISAHI
Writing library : x264 core 157 r2935 545de2f

Audio
Format : AAC LC
Duration : 2 h 19 min
Bit rate : 192 kb/s
Channel(s) : 6 channels
Channel layout : C L R Ls Rs LFE
Sampling rate : 48.0 kHz
Frame rate : 46.875 FPS (1024 SPF)
Compression mode : Lossy
Delay relative to video : -21 ms
Stream size : 189 MiB (17%)
Title : GOPISAHI
Language : Hindi

Text

Language : English





Files:

  • Batla House 2019 x264 720p HD Esub Hindi GOPISAHI.mkv (1.1 GB)

There are currently no comments. Feel free to leave one :)

Code:

  • udp://tracker.coppersurfer.tk:6969/announce
  • udp://tracker.opentrackr.org:1337/announce
  • udp://explodie.org:6969/announce
  • udp://9.rarbg.to:2790/announce
  • udp://bt.xxx-tracker.com:2710/announce
  • udp://tracker.internetwarriors.net:1337/announce
  • udp://tracker.openbittorrent.com:80/announce
  • udp://tracker.tiny-vps.com:6969/announce
  • udp://open.demonii.si:1337/announce
  • udp://tracker.torrent.eu.org:451/announce
  • udp://tracker.pirateparty.gr:6969/announce
  • udp://ipv4.tracker.harry.lu:80/announce
  • udp://tracker.cyberia.is:6969/announce
  • udp://9.rarbg.to:2790/announce