Annabelle Comes Home (2019) 720p HDRip x264 [Dual Audio] [Hindi (...

  • Category Movies
  • Type Dubs/Dual Audio
  • Language Hindi
  • Total size 1,017.2 MB
  • Uploaded By uploader6969
  • Downloads 1374
  • Last checked 1 month ago
  • Date uploaded 1 month ago
  • Seeders 18
  • Leechers 2

Annabelle Comes Home

Horror

Determined to keep Annabelle from wreaking more havoc, demonologists Ed and Lorraine Warren bring the possessed doll to the locked artifacts room in their home, placing her “safely” behind sacred glass and enlisting a priest’s holy blessing. But an unholy night of horror awaits as Annabelle awakens the evil spirits in the room, who all set their sights on a new target—the Warrens' ten-year-old daughter, Judy, and her friends.

Infohash : 4D62D93D3CD5F3B3EF4451F6C159BBC600FE95A0

www.MoviePirate.club


Telegram Link



****************************
_____ _ _ 
|_ _|___ | || | _ _ 
| | / _ \| || || | | |
| || __/| || || |_| |
|_| \___||_||_| \__, |
|___/ 
****************************
Team Telly Proudly Presents
****************************
------------------
|Media Info|
Complete name                            : J:\Annabelle Comes Home (2019) 720p HDRip x264 [Dual Audio] [Hindi (Clean) + English 5.1] ESubs - MoviePirate [Telly].mkv
Format                                   : Matroska
Format version                           : Version 4
File size                                : 1 017 MiB
Duration                                 : 1 h 46 min
Overall bit rate                         : 1 341 kb/s
Movie name                               : wWw.MoviePirate.CLub
Encoded date                             : UTC 2019-09-17 07:43:58
Writing application                      : mkvmerge v35.0.0 ('All The Love In The World') 64-bit
Writing library                          : libebml v1.3.9 + libmatroska v1.5.2 / Lavf58.20.100
Video
ID                                       : 1
Format                                   : AVC
Format/Info                              : Advanced Video Codec
Format profile                           : [email protected]
Format settings                          : CABAC / 5 Ref Frames
Format settings, CABAC                   : Yes
Format settings, Reference frames        : 5 frames
Codec ID                                 : V_MPEG4/ISO/AVC
Duration                                 : 1 h 46 min
Bit rate                                 : 1 050 kb/s
Width                                    : 1 280 pixels
Height                                   : 536 pixels
Display aspect ratio                     : 2.40:1
Frame rate mode                          : Constant
Frame rate                               : 23.976 (24000/1001) FPS
Color space                              : YUV
Chroma subsampling                       : 4:2:0
Bit depth                                : 8 bits
Scan type                                : Progressive
Bits/(Pixel*Frame)                       : 0.064
Stream size                              : 797 MiB (78%)
Title                                    : wWw.MoviePirate.CLub
Writing library                          : x264 core 157 r2935 545de2f
Encoding settings                        : cabac=1 / ref=5 / deblock=1:0:0 / analyse=0x1:0x111 / me=hex / subme=8 / psy=1 / psy_rd=1.00:0.00 / mixed_ref=1 / me_range=16 / chroma_me=1 / trellis=2 / 8x8dct=0 / cqm=0 / deadzone=21,11 / fast_pskip=1 / chroma_qp_offset=-2 / threads=17 / lookahead_threads=2 / sliced_threads=0 / nr=0 / decimate=1 / interlaced=0 / bluray_compat=0 / constrained_intra=0 / bframes=3 / b_pyramid=2 / b_adapt=1 / b_bias=0 / direct=3 / weightb=1 / open_gop=0 / weightp=2 / keyint=240 / keyint_min=24 / scenecut=40 / intra_refresh=0 / rc_lookahead=50 / rc=abr / mbtree=1 / bitrate=1050 / ratetol=1.0 / qcomp=0.60 / qpmin=0 / qpmax=69 / qpstep=4 / vbv_maxrate=50000 / vbv_bufsize=62500 / nal_hrd=none / filler=0 / ip_ratio=1.40 / aq=1:1.00
Default                                  : Yes
Forced                                   : No
Color range                              : Limited
Color primaries                          : BT.709
Transfer characteristics                 : BT.709
Matrix coefficients                      : BT.709
Audio #1
ID                                       : 2
Format                                   : AAC LC
Format/Info                              : Advanced Audio Codec Low Complexity
Codec ID                                 : A_AAC-2
Duration                                 : 1 h 46 min
Bit rate                                 : 192 kb/s
Channel(s)                               : 6 channels
Channel layout                           : C L R Ls Rs LFE
Sampling rate                            : 48.0 kHz
Frame rate                               : 46.875 FPS (1024 SPF)
Compression mode                         : Lossy
Delay relative to video                  : -21 ms
Stream size                              : 146 MiB (14%)
Title                                    : wWw.MoviePirate.CLub
Language                                 : English
Default                                  : Yes
Forced                                   : No
Audio #2
ID                                       : 4
Format                                   : MPEG Audio
Format version                           : Version 1
Format profile                           : Layer 3
Format settings                          : Joint stereo / MS Stereo
Codec ID                                 : A_MPEG/L3
Codec ID/Hint                            : MP3
Duration                                 : 1 h 46 min
Bit rate mode                            : Constant
Bit rate                                 : 96.0 kb/s
Channel(s)                               : 2 channels
Sampling rate                            : 32.0 kHz
Frame rate                               : 27.778 FPS (1152 SPF)
Compression mode                         : Lossy
Delay relative to video                  : -21 ms
Stream size                              : 72.8 MiB (7%)
Title                                    : wWw.MoviePirate.CLub
Language                                 : Hindi
Default                                  : No
Forced                                   : No
Text
ID                                       : 3
Format                                   : ASS
Codec ID                                 : S_TEXT/ASS
Codec ID/Info                            : Advanced Sub Station Alpha
Duration                                 : 1 h 40 min
Bit rate                                 : 61 b/s
Count of elements                        : 958
Compression mode                         : Lossless
Stream size                              : 45.4 KiB (0%)
Title                                    : wWw.MoviePirate.CLub
Language                                 : English
Default                                  : Yes
Forced                                   : Yes
Menu
00:00:00.000                             : :1
00:07:59.145                             : :2
00:15:34.267                             : :3
00:24:02.775                             : :4
00:32:57.976                             : :5
00:43:01.245                             : :6
00:52:29.813                             : :7
01:02:07.724                             : :8
01:06:14.637                             : :9
01:15:05.835                             : :10
01:21:46.235                             : :11
01:30:22.751                             : :12
01:39:59.327                             : :13
****************************
Tellytorrent.net 
Team Telly Official Site
****************************
www.MoviePirate.club
Enjoy Exclusives Content only on TellyTorrent.net







Files:

  • Annabelle Comes Home (2019) 720p HDRip x264 [Dual Audio] [Hindi (Clean) + English 5.1] ESubs - MoviePirate [Telly].mkv (1,017.2 MB)

There are currently no comments. Feel free to leave one :)

Code:

  • udp://tracker.opentrackr.org:1337/announce
  • //tracker1.itzmx.com:8080/announce
  • //tracker3.itzmx.com:6961/announce
  • udp://open.demonii.si:1337/announce
  • udp://tracker.tiny-vps.com:6969/announce
  • udp://thetracker.org:80/announce
  • udp://open.stealth.si:80/announce
  • udp://bt.firebit.co.uk:6969/announce
  • udp://tracker.leechers-paradise.org:6969/announce
  • udp://9.rarbg.to:2710/announce
  • udp://9.rarbg.me:2710/announce
  • udp://9.rarbg.com:2710/announce
  • udp://9.rarbg.me:2730/announce
  • udp://tracker.internetwarriors.net:1337/announce
  • //tracker.electro-torrent.pl:80/announce