MotoGP.2019.R12.Great.Britain.Race.1080p.WEB.x264-BaNHaMMER

  • Category TV
  • Type HD
  • Language English
  • Total size 3.6 GB
  • Uploaded By BanHammer
  • Downloads 173
  • Last checked 3 weeks ago
  • Date uploaded 3 weeks ago
  • Seeders 20
  • Leechers 1

Infohash : 28C95424E93E30D069DC84109F6D035A7BECD276

MotoGP.2019.R12.Great.Britain.Race.1080p.WEB.x264-BaNHaMMER









Source:MotoGp[dot]com Commentary Included.

Quote:


Format : Matroska
Format version : Version 4 / Version 2
File size : 3.58 GiB
Duration : 1h 38mn
Overall bit rate : 5 208 Kbps
Encoded date : UTC 2019-08-25 17:11:02
Writing application : mkvmerge v8.8.0 ('Wind at my back') 64bit
Writing library : libebml v1.3.3 + libmatroska v1.4.4

Video
ID : 1
Format : AVC
Format/Info : Advanced Video Codec
Format profile : [email protected]
Format settings, CABAC : Yes
Format settings, ReFrames : 2 frames
Codec ID : V_MPEG4/ISO/AVC
Duration : 1h 38mn
Bit rate : 5 000 Kbps
Width : 1 912 pixels
Original width : 1 920 pixels
Height : 1 088 pixels
Original height : 1 080 pixels
Display aspect ratio : 16:9
Original display aspect ratio : 16:9
Frame rate mode : Constant
Frame rate : 50.000 fps
Color space : YUV
Chroma subsampling : 4:2:0
Bit depth : 8 bits
Scan type : Progressive
Bits/(Pixel*Frame) : 0.048
Stream size : 3.44 GiB (96%)
Writing library : x264 core 120 r3284M edda297
Encoding settings : cabac=1 / ref=2 / deblock=1:0:0 / analyse=0x1:0x11 / me=hex / subme=4 / psy=1 / psy_rd=1.00:0.00 / mixed_ref=0 / me_range=16 / chroma_me=1 / trellis=1 / 8x8dct=0 / cqm=0 / deadzone=21,11 / fast_pskip=1 / chroma_qp_offset=0 / threads=36 / sliced_threads=0 / nr=0 / decimate=1 / interlaced=0 / bluray_compat=0 / constrained_intra=0 / bframes=0 / weightp=1 / keyint=100 / keyint_min=51 / scenecut=0 / intra_refresh=0 / keytime=0 / rc_lookahead=20 / rc=cbr / mbtree=1 / bitrate=5000 / ratetol=1.0 / qcomp=0.60 / qpmin=10 / qpmax=51 / qpstep=4 / vbv_maxrate=5000 / vbv_bufsize=10000 / nal_hrd=none / ip_ratio=1.40 / aq=1:1.00
Default : Yes
Forced : No

Audio
ID : 2
Format : AAC
Format/Info : Advanced Audio Codec
Format profile : LC
Codec ID : A_AAC
Duration : 1h 38mn
Bit rate : 192 Kbps
Channel(s) : 2 channels
Channel positions : Front: L R
Sampling rate : 48.0 KHz
Frame rate : 46.875 fps (1024 spf)
Compression mode : Lossy
Stream size : 135 MiB (4%)
Default : Yes
Forced : No

Files:

MotoGP.2019.R12.Great.Britain.Race.1080p.WEB.x264-BaNHaMMER
  • MotoGP.2019.R12.Great.Britain.Race.1080p.WEB.x264-BaNHaMMER.mkv (3.6 GB)
  • MotoGP.2019.R12.Great.Britain.Race.1080p.WEB.x264-BaNHaMMER.nfo (3.4 KB)

There are currently no comments. Feel free to leave one :)

Code:

  • udp://tracker.coppersurfer.tk:6969/announce
  • udp://tracker.leechers-paradise.org:6969/announce
  • udp://bt.xxx-tracker.com:2710/announce
  • udp://tracker.internetwarriors.net:1337/announce
  • udp://tracker.openbittorrent.com:80/announce
  • udp://explodie.org:6969/announce