Sharktopus (2010) 720p BluRay Dual Audio [Hindi+English]SeedUp

  • Category Movies
  • Type Dubs/Dual Audio
  • Language Hindi
  • Total size 970.1 MB
  • Uploaded By SeedUp
  • Downloads 601
  • Last checked 3 weeks ago
  • Date uploaded 3 weeks ago
  • Seeders 0
  • Leechers 1

Sharktopus

ComedyHorrorScience FictionThriller

The U.S. Navy's special group "Blue Water" builds a half-shark, half-octopus for combat. But the sharktopus escapes and terrorizes the beaches of Puerto Vallarta.

Infohash : 879B7FE212F9B1E487D1FA1BD3C070CB79474E0A



Complete name : Sharktopus (2010) 720p BluRay Dual Audio [Hindi+English]SeedUp.mkv
Format : Matroska
Format version : Version 4
File size : 970 MiB
Duration : 1 h 29 min
Overall bit rate : 1 522 kb/s
Movie name : Sharktopus (2010) 720p BluRay Dual Audio [Hindi+English]SeedUp
Encoded date : UTC 2019-08-25 08:02:38

Video
ID : 1
Format : AVC
Format/Info : Advanced Video Codec
Duration : 1 h 29 min
Bit rate : 1 200 kb/s
Width : 1 280 pixels
Height : 544 pixels
Display aspect ratio : 2.35:1
Frame rate mode : Constant
Frame rate : 23.976 (24000/1001) FPS
Color space : YUV
Chroma subsampling : 4:2:0
Bit depth : 8 bits
Scan type : Progressive
Title : SeedUp
Language : English

Audio #1
ID : 2
Format : AAC LC
Codec ID : A_AAC-2
Duration : 1 h 29 min
Bit rate : 160 kb/s
Channel(s) : 2 channels
Channel layout : L R
Sampling rate : 48.0 kHz
Frame rate : 46.875 FPS (1024 SPF)
Compression mode : Lossy
Stream size : 102 MiB (11%)
Title : SeedUp
Language : Hindi

Audio #2
ID : 3
Format : AAC LC
Codec ID : A_AAC-2
Duration : 1 h 29 min
Bit rate : 160 kb/s
Channel(s) : 2 channels
Channel layout : L R
Sampling rate : 48.0 kHz
Frame rate : 46.875 FPS (1024 SPF)
Compression mode : Lossy
Stream size : 102 MiB (11%)
Title : SeedUp
Language : English



Screenshots












Files:

  • Sharktopus (2010) 720p BluRay Dual Audio [Hindi+English]SeedUp.mkv (970.1 MB)

There are currently no comments. Feel free to leave one :)

Code:

  • udp://tracker.openbittorrent.com:80/announce
  • udp://tracker.opentrackr.org:1337/announce
  • udp://bt.xxx-tracker.com:2710/announce
  • udp://tracker.torrent.eu.org:451/announce
  • //torrent.nwps.ws:80/announce
  • udp://tracker.ds.is:6969/announce
  • //opentracker.xyz:443/announce
  • //open.trackerlist.xyz:80/announce
  • udp://amigacity.xyz:6969/announce
  • udp://tracker.nyaa.uk:6969/announce
  • //tracker.gbitt.info:80/announce
  • udp://newtoncity.org:6969/announce
  • //tracker.nanoha.org:443/announce