Madan no Ou to Vanadis Batch With Manga [BD720p] [HEVC] [10bit] [...

  • Category Anime
  • Type Subbed
  • Language Japanese
  • Total size 3.0 GB
  • Uploaded By smoodflamez
  • Downloads 54
  • Last checked 3 weeks ago
  • Date uploaded 3 weeks ago
  • Seeders 5
  • Leechers 4

Infohash : 6AAAF3C3A75830FA6D6D416A889DF8537DD48185

Title
Madan no Ou to Vanadis

Source
FFF

Synopsis
In a fantasy version of Europe, a war between enemy countries is brewing. One of these countries, Zhcted, has its seven regions ruled by War Maidens, known as Vanadis. Equipped with powerful dragon-carved weapons, Eleonora “Elen” Viltaria, one of the Vanadis, launches an invasion against their neighboring rival country of Brune. Eventually, Tigrevurmud “Tigre” Vorn, a young archer and an earl for Brune’s region of Alsace, has his entire army decimated at Elen’s hands. In a strange twist of events, Elen spares Tigre, and gives him the order, “Become mine!” What could be the meaning behind this new alliance?

Adapted from the light novel written by Tsukasa Kawaguchi, Madan no Ou to Vanadis is an epic adventure filled with complex war tactics and beautiful women. Trapped in a multinational conflict, Tigre and Elen are swept up in a war filled with dark secrets, conspiracies, and corruption.

Information
Type: TV
Episodes: 13
Status: Finished Airing
Aired: Oct 4, 2014 to Dec 27, 2014
Premiered: Fall 2014
Broadcast: Saturdays at 20:00 (JST)
Producers: Media Factory, Movic
Licensors: Funimation
Studios: Satelight
Source: Light novel
Genres: Adventure, Ecchi, Fantasy, Harem, Romance
Duration: 24 min. per ep.
Rating: R - 17+ (violence & profanity

===============================================================================

MediaInfo
Video
ID : 1
Format : HEVC
Format/Info : High Efficiency Video Coding
Format profile : Main [email protected]@High
Codec ID : V_MPEGH/ISO/HEVC
Duration : 24 min 10 s
Bit rate : 988 kb/s
Width : 1 280 pixels
Height : 720 pixels
Display aspect ratio : 16:9
Frame rate mode : Constant
Frame rate : 23.976 (24000/1001) FPS
Color space : YUV
Chroma subsampling : 4:2:0
Bit depth : 10 bits

Audio
ID : 2
Format : AAC LC SBR
Format/Info : Advanced Audio Codec Low Complexity with Spectral Band Replication
Commercial name : HE-AAC
Format settings : Explicit
Codec ID : A_AAC-2
Duration : 24 min 10 s
Bit rate : 80.0 kb/s
Channel(s) : 2 channels
Channel layout : L R
Sampling rate : 96.0 kHz
Frame rate : 46.875 FPS (2048 SPF)
Compression mode : Lossy
Delay relative to video : 17 ms
Stream size : 13.8 MiB (7%)
Title : 2.0 AAC
Language : Japanese
Default : Yes
Forced : No

Text
ID : 3
Format : ASS
Codec ID : S_TEXT/ASS
Codec ID/Info : Advanced Sub Station Alpha
Duration : 24 min 1 s
Bit rate : 197 b/s
Count of elements : 417
Compression mode : Lossless
Stream size : 34.8 KiB (0%)
Language : English
Default : No
Forced : Yes

Menu
00:00:00.000 : en:Prologue - 00:00:00.000
00:00:56.056 : en:Opening - 00:00:56.056
00:02:26.021 : en:Part A - 00:02:26.021
00:12:50.978 : en:Eyecatch - 00:12:50.978
00:13:00.989 : en:Part B - 00:13:00.989
00:22:14.792 : en:Ending - 00:22:14.792
00:23:40.001 : en:Preview - 00:23:40.001

==================================================================================================

Screenshots


There are currently no comments. Feel free to leave one :)

Code:

  • //nyaa.tracker.wf:7777/announce
  • UDP://TRACKER.ZER0DAY.TO:1337/ANNOUNCE
  • UDP://EDDIE4.NL:6969/ANNOUNCE
  • udp://tracker.opentrackr.org:1337/announce