Wu Assassins (2019) Season 01 S01 (1080p NF WEB-DL x265 HEVC 10bi...

  • Category TV
  • Type HEVC/x265
  • Language English
  • Total size 4.4 GB
  • Uploaded By UTRCorp
  • Downloads 417
  • Last checked 3 days ago
  • Date uploaded 5 days ago
  • Seeders 31
  • Leechers 14

Infohash : D1F1F5D07B7E3EDC7605C614CB09E26598A89813


Media Information

Media Information


Code:

General
Format                                   : Matroska
Format version                           : Version 4 / Version 2
File size                                : 439 MiB
Duration                                 : 44 min 7 s
Overall bit rate                         : 1 392 kb/s
Movie name                               : Wu Assassins S01E01 Drunken Watermelon  (1080p x265 10bit Joy)
Encoded date                             : UTC 2019-08-10 03:15:04
Writing application                      : mkvmerge v34.0.0 ('Sight and Seen') 64-bit
Writing library                          : libebml v1.3.7 + libmatroska v1.5.0
Writing frontend                         : StaxRip v2.0.2.0, a JoyBell Encode

Video
ID                                       : 1
Format                                   : HEVC
Format/Info                              : High Efficiency Video Coding
Format profile                           : Main [email protected]@Main
Codec ID                                 : V_MPEGH/ISO/HEVC
Duration                                 : 44 min 7 s
Bit rate                                 : 1 203 kb/s
Width                                    : 1 920 pixels
Height                                   : 960 pixels
Display aspect ratio                     : 2.000
Frame rate mode                          : Constant
Frame rate                               : 23.976 (24000/1001) FPS
Color space                              : YUV
Chroma subsampling                       : 4:2:0
Bit depth                                : 10 bits
Bits/(Pixel*Frame)                       : 0.027
Stream size                              : 379 MiB (86%)
Writing library                          : x265 3.0_Au+24-4217e691387c:[Windows][GCC 9.1.1][64 bit] 10bit
Encoding settings                        : rc=abr / bitrate=1200 / qcomp=0.60 / qpstep=4 / stats-write=0 / stats-read=2 / cplxblur=20.0 / qblur=0.5 / qpmax=69 / qpmin=0 / no-lossless / no-cu-lossless / no-hevc-aq / no-aq-motion / aq-mode=3 / aq-strength=0.80 / cbqpoffs=0 / crqpoffs=0 / ipratio=1.40 / pbratio=1.30 / psy-rd=0.00 / psy-rdoq=1.50 / deblock=0:0 / ref=4 / limit-refs=3 / limit-modes / bframes=8 / b-adapt=2 / bframe-bias=40 / b-pyramid / no-b-intra / weightp / no-weightb / keyint=250 / min-keyint=23 / rc-lookahead=80 / gop-lookahead=0 / scenecut=40 / scenecut-bias=0.05 / ctu=64 / min-cu-size=8 / me=3 / subme=3 / merange=57 / rd=4 / no-rd-refine / ssim-rd / dynamic-rd=0.00 / rdoq-level=2 / rdpenalty=0 / cutree / sao / limit-sao / no-sao-non-deblock / no-rect / no-amp / open-gop / max-tu-size=32 / tu-inter-depth=1 / tu-intra-depth=1 / limit-tu=0 / qg-size=32 / wpp / no-pmode / no-pme / no-psnr / ssim / no-tskip / constrained-intra / strong-intra-smoothing / max-merge=3 / nr-intra=0 / nr-inter=0 / input-csp=1 / input-res=1920x960 / interlace=0 / total-frames=63471 / level-idc=0 / high-tier=1cpuid=1111039 / frame-threads=3 / numa-pools=8 / log-level=2 / uhd-bd=0 / lookahead-slices=4 / radl=0 / no-splice / no-intra-refresh / signhide / temporal-mvp / no-analyze-src-pics / early-skip / rskip / no-fast-intra / no-tskip-fast / splitrd-skip / zone-count=0 / no-strict-cbr / no-rc-grain / no-const-vbv / no-allow-non-conformance / no-repeat-headers / annexb / no-aud / no-hrd / info / hash=0 / no-temporal-layers / sar=0 / overscan=0 / videoformat=5 / range=0 / colorprim=2 / transfer=2 / colormatrix=2 / chromaloc=0 / display-window=0 / max-cll=0,0 / min-luma=0 / max-luma=1023 / log2-max-poc-lsb=8 / vui-timing-info / vui-hrd-info / slices=1 / no-opt-qp-pps / no-opt-ref-list-length-pps / multi-pass-opt-rps / no-opt-cu-delta-qp / no-hdr / no-hdr-opt / no-dhdr10-opt / no-idr-recovery-sei / analysis-reuse-level=10 / scale-factor=0 / refine-intra=0 / refine-inter=0 / refine-mv=0 / refine-ctu-distortion=0 / ctu-info=0 / no-lowpass-dct / refine-analysis-type=0 / copy-pic=1 / max-ausize-factor=1.0 / no-dynamic-refine / no-single-sei / no-svt / qp-adaptation-range=1.00
Default                                  : Yes
Forced                                   : No

Audio
ID                                       : 2
Format                                   : AAC
Format/Info                              : Advanced Audio Codec
Format profile                           : HE-AAC / LC
Codec ID                                 : A_AAC
Duration                                 : 44 min 7 s
Bit rate                                 : 184 kb/s
Channel(s)                               : 6 channels
Channel positions                        : Front: L C R, Side: L R, LFE
Sampling rate                            : 48.0 kHz / 24.0 kHz
Frame rate                               : 23.438 FPS (1024 spf)
Compression mode                         : Lossy
Delay relative to video                  : 31 ms
Stream size                              : 58.1 MiB (13%)
Language                                 : English
Default                                  : No
Forced                                   : No

Subtitle #1
ID                                       : 3
Format                                   : UTF-8
Codec ID                                 : S_TEXT/UTF8
Codec ID/Info                            : UTF-8 Plain Text
Duration                                 : 34 min 53 s
Bit rate                                 : 1 b/s
Count of elements                        : 18
Stream size                              : 361 Bytes (0%)
Language                                 : English
Default                                  : No
Forced                                   : Yes

Subtitle #2
ID                                       : 4
Format                                   : UTF-8
Codec ID                                 : S_TEXT/UTF8
Codec ID/Info                            : UTF-8 Plain Text
Duration                                 : 43 min 5 s
Bit rate                                 : 56 b/s
Count of elements                        : 577
Stream size                              : 17.7 KiB (0%)
Language                                 : English
Default                                  : No
Forced                                   : No

Subtitle #3
ID                                       : 5
Format                                   : UTF-8
Codec ID                                 : S_TEXT/UTF8
Codec ID/Info                            : UTF-8 Plain Text
Duration                                 : 43 min 11 s
Bit rate                                 : 60 b/s
Count of elements                        : 644
Stream size                              : 19.2 KiB (0%)
Language                                 : English
Default                                  : No
Forced                                   : No

Subtitle #4
ID                                       : 6
Format                                   : UTF-8
Codec ID                                 : S_TEXT/UTF8
Codec ID/Info                            : UTF-8 Plain Text
Duration                                 : 40 min 49 s
Bit rate                                 : 82 b/s
Count of elements                        : 506
Stream size                              : 24.8 KiB (0%)
Language                                 : Arabic
Default                                  : No
Forced                                   : No

Subtitle #5
ID                                       : 7
Format                                   : UTF-8
Codec ID                                 : S_TEXT/UTF8
Codec ID/Info                            : UTF-8 Plain Text
Duration                                 : 42 min 33 s
Bit rate                                 : 46 b/s
Count of elements                        : 491
Stream size                              : 14.4 KiB (0%)
Language                                 : Czech
Default                                  : No
Forced                                   : No

Subtitle #6
ID                                       : 8
Format                                   : UTF-8
Codec ID                                 : S_TEXT/UTF8
Codec ID/Info                            : UTF-8 Plain Text
Duration                                 : 40 min 49 s
Bit rate                                 : 41 b/s
Count of elements                        : 425
Stream size                              : 12.3 KiB (0%)
Language                                 : Danish
Default                                  : No
Forced                                   : No

Subtitle #7
ID                                       : 9
Format                                   : UTF-8
Codec ID                                 : S_TEXT/UTF8
Codec ID/Info                            : UTF-8 Plain Text
Duration                                 : 43 min 14 s
Bit rate                                 : 40 b/s
Count of elements                        : 442
Stream size                              : 12.9 KiB (0%)
Language                                 : German
Default                                  : No
Forced                                   : No

Subtitle #8
ID                                       : 10
Format                                   : UTF-8
Codec ID                                 : S_TEXT/UTF8
Codec ID/Info                            : UTF-8 Plain Text
Duration                                 : 43 min 4 s
Bit rate                                 : 72 b/s
Count of elements                        : 479
Stream size                              : 22.7 KiB (0%)
Language                                 : Greek
Default                                  : No
Forced                                   : No

Subtitle #9
ID                                       : 11
Format                                   : UTF-8
Codec ID                                 : S_TEXT/UTF8
Codec ID/Info                            : UTF-8 Plain Text
Duration                                 : 43 min 8 s
Bit rate                                 : 44 b/s
Count of elements                        : 474
Stream size                              : 13.9 KiB (0%)
Language                                 : Spanish
Default                                  : No
Forced                                   : No

Subtitle #10
ID                                       : 12
Format                                   : UTF-8
Codec ID                                 : S_TEXT/UTF8
Codec ID/Info                            : UTF-8 Plain Text
Duration                                 : 43 min 4 s
Bit rate                                 : 40 b/s
Count of elements                        : 482
Stream size                              : 12.9 KiB (0%)
Language                                 : Spanish
Default                                  : No
Forced                                   : No

Subtitle #11
ID                                       : 13
Format                                   : UTF-8
Codec ID                                 : S_TEXT/UTF8
Codec ID/Info                            : UTF-8 Plain Text
Duration                                 : 40 min 49 s
Bit rate                                 : 41 b/s
Count of elements                        : 334
Stream size                              : 12.4 KiB (0%)
Language                                 : Finnish
Default                                  : No
Forced                                   : No

Subtitle #12
ID                                       : 14
Format                                   : UTF-8
Codec ID                                 : S_TEXT/UTF8
Codec ID/Info                            : UTF-8 Plain Text
Duration                                 : 40 min 49 s
Bit rate                                 : 52 b/s
Count of elements                        : 504
Stream size                              : 15.8 KiB (0%)
Language                                 : French
Default                                  : No
Forced                                   : No

Subtitle #13
ID                                       : 15
Format                                   : UTF-8
Codec ID                                 : S_TEXT/UTF8
Codec ID/Info                            : UTF-8 Plain Text
Duration                                 : 40 min 49 s
Bit rate                                 : 71 b/s
Count of elements                        : 496
Stream size                              : 21.5 KiB (0%)
Language                                 : Hebrew
Default                                  : No
Forced                                   : No

Subtitle #14
ID                                       : 16
Format                                   : UTF-8
Codec ID                                 : S_TEXT/UTF8
Codec ID/Info                            : UTF-8 Plain Text
Duration                                 : 40 min 49 s
Bit rate                                 : 41 b/s
Count of elements                        : 504
Stream size                              : 12.4 KiB (0%)
Language                                 : Hungarian
Default                                  : No
Forced                                   : No

Subtitle #15
ID                                       : 17
Format                                   : UTF-8
Codec ID                                 : S_TEXT/UTF8
Codec ID/Info                            : UTF-8 Plain Text
Duration                                 : 43 min 3 s
Bit rate                                 : 46 b/s
Count of elements                        : 480
Stream size                              : 14.6 KiB (0%)
Language                                 : Indonesian
Default                                  : No
Forced                                   : No

Subtitle #16
ID                                       : 18
Format                                   : UTF-8
Codec ID                                 : S_TEXT/UTF8
Codec ID/Info                            : UTF-8 Plain Text
Duration                                 : 40 min 49 s
Bit rate                                 : 46 b/s
Count of elements                        : 507
Stream size                              : 13.8 KiB (0%)
Language                                 : Italian
Default                                  : No
Forced                                   : No

Subtitle #17
ID                                       : 19
Format                                   : UTF-8
Codec ID                                 : S_TEXT/UTF8
Codec ID/Info                            : UTF-8 Plain Text
Duration                                 : 43 min 4 s
Bit rate                                 : 42 b/s
Count of elements                        : 489
Stream size                              : 13.3 KiB (0%)
Language                                 : Japanese
Default                                  : No
Forced                                   : No

Subtitle #18
ID                                       : 20
Format                                   : UTF-8
Codec ID                                 : S_TEXT/UTF8
Codec ID/Info                            : UTF-8 Plain Text
Duration                                 : 40 min 49 s
Bit rate                                 : 62 b/s
Count of elements                        : 508
Stream size                              : 18.8 KiB (0%)
Language                                 : Korean
Default                                  : No
Forced                                   : No

Subtitle #19
ID                                       : 21
Format                                   : UTF-8
Codec ID                                 : S_TEXT/UTF8
Codec ID/Info                            : UTF-8 Plain Text
Duration                                 : 40 min 49 s
Bit rate                                 : 43 b/s
Count of elements                        : 459
Stream size                              : 13.0 KiB (0%)
Language                                 : Norwegian Bokmal
Default                                  : No
Forced                                   : No

Subtitle #20
ID                                       : 22
Format                                   : UTF-8
Codec ID                                 : S_TEXT/UTF8
Codec ID/Info                            : UTF-8 Plain Text
Duration                                 : 40 min 49 s
Bit rate                                 : 45 b/s
Count of elements                        : 455
Stream size                              : 13.7 KiB (0%)
Language                                 : Dutch
Default                                  : No
Forced                                   : No

Subtitle #21
ID                                       : 23
Format                                   : UTF-8
Codec ID                                 : S_TEXT/UTF8
Codec ID/Info                            : UTF-8 Plain Text
Duration                                 : 43 min 4 s
Bit rate                                 : 36 b/s
Count of elements                        : 450
Stream size                              : 11.5 KiB (0%)
Language                                 : Polish
Default                                  : No
Forced                                   : No

Subtitle #22
ID                                       : 24
Format                                   : UTF-8
Codec ID                                 : S_TEXT/UTF8
Codec ID/Info                            : UTF-8 Plain Text
Duration                                 : 43 min 3 s
Bit rate                                 : 42 b/s
Count of elements                        : 442
Stream size                              : 13.3 KiB (0%)
Language                                 : Portuguese
Default                                  : No
Forced                                   : No

Subtitle #23
ID                                       : 25
Format                                   : UTF-8
Codec ID                                 : S_TEXT/UTF8
Codec ID/Info                            : UTF-8 Plain Text
Duration                                 : 40 min 49 s
Bit rate                                 : 45 b/s
Count of elements                        : 489
Stream size                              : 13.7 KiB (0%)
Language                                 : Portuguese
Default                                  : No
Forced                                   : No

Subtitle #24
ID                                       : 26
Format                                   : UTF-8
Codec ID                                 : S_TEXT/UTF8
Codec ID/Info                            : UTF-8 Plain Text
Duration                                 : 40 min 49 s
Bit rate                                 : 47 b/s
Count of elements                        : 471
Stream size                              : 14.2 KiB (0%)
Language                                 : Romanian
Default                                  : No
Forced                                   : No

Subtitle #25
ID                                       : 27
Format                                   : UTF-8
Codec ID                                 : S_TEXT/UTF8
Codec ID/Info                            : UTF-8 Plain Text
Duration                                 : 40 min 49 s
Bit rate                                 : 73 b/s
Count of elements                        : 505
Stream size                              : 21.9 KiB (0%)
Language                                 : Russian
Default                                  : No
Forced                                   : No

Subtitle #26
ID                                       : 28
Format                                   : UTF-8
Codec ID                                 : S_TEXT/UTF8
Codec ID/Info                            : UTF-8 Plain Text
Duration                                 : 43 min 3 s
Bit rate                                 : 41 b/s
Count of elements                        : 488
Stream size                              : 13.0 KiB (0%)
Language                                 : Swedish
Default                                  : No
Forced                                   : No

Subtitle #27
ID                                       : 29
Format                                   : UTF-8
Codec ID                                 : S_TEXT/UTF8
Codec ID/Info                            : UTF-8 Plain Text
Duration                                 : 40 min 49 s
Bit rate                                 : 120 b/s
Count of elements                        : 506
Stream size                              : 36.0 KiB (0%)
Language                                 : Thai
Default                                  : No
Forced                                   : No

Subtitle #28
ID                                       : 30
Format                                   : UTF-8
Codec ID                                 : S_TEXT/UTF8
Codec ID/Info                            : UTF-8 Plain Text
Duration                                 : 40 min 49 s
Bit rate                                 : 49 b/s
Count of elements                        : 466
Stream size                              : 14.9 KiB (0%)
Language                                 : Turkish
Default                                  : No
Forced                                   : No

Subtitle #29
ID                                       : 31
Format                                   : UTF-8
Codec ID                                 : S_TEXT/UTF8
Codec ID/Info                            : UTF-8 Plain Text
Duration                                 : 40 min 49 s
Bit rate                                 : 60 b/s
Count of elements                        : 501
Stream size                              : 18.2 KiB (0%)
Language                                 : Vietnamese
Default                                  : No
Forced                                   : No

Subtitle #30
ID                                       : 32
Format                                   : UTF-8
Codec ID                                 : S_TEXT/UTF8
Codec ID/Info                            : UTF-8 Plain Text
Duration                                 : 40 min 49 s
Bit rate                                 : 46 b/s
Count of elements                        : 512
Stream size                              : 13.8 KiB (0%)
Language                                 : Chinese
Default                                  : No
Forced                                   : No

Subtitle #31
ID                                       : 33
Format                                   : UTF-8
Codec ID                                 : S_TEXT/UTF8
Codec ID/Info                            : UTF-8 Plain Text
Duration                                 : 40 min 49 s
Bit rate                                 : 47 b/s
Count of elements                        : 507
Stream size                              : 14.3 KiB (0%)
Language                                 : Chinese
Default                                  : No
Forced                                   : No

Subtitle #32
ID                                       : 34
Format                                   : UTF-8
Codec ID                                 : S_TEXT/UTF8
Codec ID/Info                            : UTF-8 Plain Text
Duration                                 : 40 min 49 s
Bit rate                                 : 49 b/s
Count of elements                        : 505
Stream size                              : 14.7 KiB (0%)
Language                                 : Chinese
Default                                  : No
Forced                                   : No



Source Information


Code:

Release: Wu.Assassins.S01.1080p.NF.WEBRip.DDP5.1.Atmos.x264-NTG [15.4 GB]


Code:


Note From UTR
We have no issue with individuals posting or re-uploading our torrents on a platform we aren't on. However, if this is something you'd like to do, please do so in a 'as-is' format. We ask that you do not create a new torrent, include all descriptions you see above including the UTR logo, tags, notes and screenshots. If you'd like to become a permanent poster on a website we don't post to, feel free to get in contact with a UniTeam member.

If possible please donate: BTC 1QA5fum5AyXvWzdVCkQzUNvw3Ef15fHRaR




Files:

Wu Assassins Season 1 (1080p x265 10bit FS96 Joy)
  • Wu Assassins S01E07 Legacy (1080p x265 10bit Joy).mkv (504.7 MB)
  • folder.jpg (93.3 KB)
  • How to play HEVC (THIS FILE).txt (3.4 KB)
  • Ninite K-Lite Codecs Unattended Silent Installer and Updater.website (0.5 KB)
  • Wu Assassins S01E01 Drunken Watermelon (1080p x265 10bit Joy).mkv (439.2 MB)
  • Wu Assassins S01E02 Misspent Youth (1080p x265 10bit Joy).mkv (417.9 MB)
  • Wu Assassins S01E03 Fire Chicken (1080p x265 10bit Joy).mkv (468.5 MB)
  • Wu Assassins S01E04 A Twisting Snake (1080p x265 10bit Joy).mkv (422.7 MB)
  • Wu Assassins S01E05 Codladh Sámh (1080p x265 10bit Joy).mkv (485.0 MB)
  • Wu Assassins S01E06 Gu Assassins (1080p x265 10bit Joy).mkv (469.4 MB)
  • Encoded by JoyBell (UTR).txt (3.2 KB)
  • Wu Assassins S01E08 Ladies Night (1080p x265 10bit Joy).mkv (402.8 MB)
  • Wu Assassins S01E09 Paths Pt 1 (1080p x265 10bit Joy).mkv (400.9 MB)
  • Wu Assassins S01E10 Paths Pt 2 (1080p x265 10bit Joy).mkv (478.6 MB)

There are currently no comments. Feel free to leave one :)

Code:

  • udp://tracker.coppersurfer.tk:6969/announce
  • udp://9.rarbg.com:2710/announce
  • udp://9.rarbg.to:2710/announce
  • udp://tracker.torrent.eu.org:451/announce
  • udp://exodus.desync.com:6969/announce
  • udp://tracker.tiny-vps.com:6969/announce
  • udp://open.demonii.si:1337/announce
  • udp://tracker.opentrackr.org:1337/announce
  • udp://tracker.internetwarriors.net:1337/announce