Fast.and.Furious.Presents.Hobbs.and.Shaw.2019.HC.HDCam.XviD.B4ND1...

  • Category Movies
  • Type Divx/Xvid
  • Language English
  • Total size 1.7 GB
  • Uploaded By B4ND1T69
  • Downloads 15410
  • Last checked 1 week ago
  • Date uploaded 2 weeks ago
  • Seeders 280
  • Leechers 159

Fast & Furious Presents: Hobbs & Sh...

Action

A spinoff of The Fate of the Furious, focusing on Johnson's US Diplomatic Security Agent Luke Hobbs forming an unlikely alliance with Statham's Deckard Shaw.

Infohash : E720FCA102389A501635E3BE39898609FA875945

Fast.and.Furious.Presents.Hobbs.and.Shaw.2019.HC.HDCam.XviD.B4ND1T69



Director: David Leitch
Writers: Chris Morgan (story by), Chris Morgan (screenplay by)
Stars: Dwayne Johnson, Jason Statham, Idris Elba

Plot/Story:
Lawman Luke Hobbs and outcast Deckard Shaw form an unlikely alliance when a cyber-genetically enhanced villain threatens the future of humanity.

Notes:
Clean Print, NO ads, watermarks or floaty crap. Hardcoded Chinese subs throughout.
Centered it, fixed the AR, cleaned the image up and gave it a polish, re-made the audio file so you can hear everything...3 samples included for you to check.

General
Complete name               : Fast.and.Furious.Presents.Hobbs.and.Shaw.2019.HC.HDCam.XviD.B4ND1T69.avi
Format                      : AVI
Format/Info                 : Audio Video Interleave
File size                   : 1.62 GiB
Duration                    : 2 h 8 min
Overall bit rate            : 1 806 kb/s
Source                      : Korean...thanks.
Samples                     : Yes...Included(3)

Video
ID                          : 0
Format                      : MPEG-4 Visual
Format profile              : Advanced [email protected]
Format settings, BVOP       : 2
Format settings, QPel       : No
Format settings, GMC        : No warppoints
Format settings, Matrix     : Default (H.263)
Codec ID                    : XVID
Codec ID/Hint               : XviD
Duration                    : 2 h 8 min
Bit rate                    : 1 664 kb/s
Width                       : 720 pixels
Height                      : 304 pixels
Display aspect ratio        : 2.35:1
Frame rate                  : 28.163 FPS
Color space                 : YUV
Chroma subsampling          : 4:2:0
Bit depth                   : 8 bits
Scan type                   : Progressive
Compression mode            : Lossy
Bits/(Pixel*Frame)          : 0.270
Stream size                 : 1.49 GiB (92%)
Writing library             : XviD 64

Audio
ID                          : 1
Format                      : MPEG Audio
Format version              : Version 1
Format profile              : Layer 3
Mode                        : Joint stereo
Codec ID                    : 55
Codec ID/Hint               : MP3
Duration                    : 1 h 26 min
Source duration             : 2 h 8 min
Bit rate mode               : Constant
Bit rate                    : 128 kb/s
Channel(s)                  : 2 channels
Sampling rate               : 48.0 kHz
Compression mode            : Lossy
Stream size                 : 117 MiB (7%)
Alignment                   : Aligned on interleaves
Interleave, duration        : 24  ms (0.68 video frame)

Screenshots:

//i.imgur.com/TtDnR5z.png
//i.imgur.com/Z7XMcpZ.png
//i.imgur.com/aCwv4cH.png
//i.imgur.com/0Gfbflb.png
//i.imgur.com/oHHfWof.png
//i.imgur.com/fwtPrWj.png
//i.imgur.com/vUE6PFm.png
//i.imgur.com/MepEknR.png









Please Seed For As Long As Possible
Or At Least 1:1 Ratio...Thanks
Enjoy Peeps


Files:

Fast.and.Furious.Presents.Hobbs.and.Shaw.2019.HC.HDCam.XviD.B4ND1T69
  • 1337x text file.txt (0.1 KB)
  • Downloaded from katcr.co.txt (0.1 KB)
  • Sample.1.avi (10.8 MB)
  • Sample.2.avi (19.1 MB)
  • Sample.3.avi (30.1 MB)
  • Fast.and.Furious.Presents.Hobbs.and.Shaw.2019.HC.HDCam.XviD.B4ND1T69.avi (1.6 GB)

Comments

Code:

  • udp://tracker.coppersurfer.tk:6969/announce
  • udp://tracker.pirateparty.gr:6969/announce
  • udp://tracker.opentrackr.org:1337/announce
  • udp://tracker.internetwarriors.net:1337/announce
  • udp://tracker.tiny-vps.com:6969/announce
  • udp://open.demonii.si:1337/announce
  • udp://tracker.torrent.eu.org:451/announce
  • udp://tracker.leechers-paradise.org:6969/announce